Quantcast

Čemu mogu koristiti podaci o fajlu iz programa Media Info

Koji Windows koristite

  • Windows XP

    glasova: 0 0,0%
  • Windows Vista

    glasova: 0 0,0%
  • Windows 7

    glasova: 1 25,0%
  • Windows 8.1

    glasova: 1 25,0%
  • Windows 10

    glasova: 1 25,0%
  • Linux

    glasova: 1 25,0%
  • Neki drugi

    glasova: 0 0,0%

  • Ukupno glasova
    4
  • Anketa je zatvorena .

Atomic™

Zaslužan član
Poruka
132.356
Čemu mogu koristiti podaci o fajlu iz programa Media Info koji se dobija uz K Lite kodeke?



General
Complete name : D:\Movies\Biblijski filmovi\David\David 1. deo - biblijski igrani film.mp4
Format : MPEG-4
Format profile : Base Media / Version 2
Codec ID : mp42 (isom/mp42)
File size : 271 MiB
Duration : 1 h 27 min
Overall bit rate mode : Variable
Overall bit rate : 431 kb/s
Encoded date : UTC 2018-02-24 22:33:36
Tagged date : UTC 2018-02-24 22:33:36

Video
ID : 1
Format : AVC
Format/Info : Advanced Video Codec
Format profile : Baseline@L2.1
Format settings : 1 Ref Frames
Format settings, CABAC : No
Format settings, Reference : 1 frame
Codec ID : avc1
Codec ID/Info : Advanced Video Coding
Duration : 1 h 27 min
Bit rate : 332 kb/s
Maximum bit rate : 1 632 kb/s
Width : 432 pixels
Height : 320 pixels
Display aspect ratio : 4:3
Frame rate mode : Constant
Frame rate : 25.000 FPS
Color space : YUV
Chroma subsampling : 4:2:0
Bit depth : 8 bits
Scan type : Progressive
Bits/(Pixel*Frame) : 0.096
Stream size : 209 MiB (77%)
Tagged date : UTC 2018-02-24 22:34:42
Codec configuration box : avcC

Audio
ID : 2
Format : AAC LC
Format/Info : Advanced Audio Codec Low Complexity
Codec ID : mp4a-40-2
Duration : 1 h 27 min
Bit rate mode : Variable
Bit rate : 96.0 kb/s
Maximum bit rate : 104 kb/s
Channel(s) : 2 channels
Channel layout : L R
Sampling rate : 44.1 kHz
Frame rate : 43.066 FPS (1024 SPF)
Compression mode : Lossy
Stream size : 60.3 MiB (22%)
Title : IsoMedia File Produced by Google, 5-11-2011
Encoded date : UTC 2018-02-24 22:34:11
Tagged date : UTC 2018-02-24 22:34:42
 

Commie

Buduća legenda
Poruka
41.783
Atomic malo ti konfuzna tema ...
Postavio si anketu koji win koristimo a u postu si napisao cemu sluzi Media info? :lol:

Inace media info mozes instalirati i bez k lite paketa :aha2:

Media info (informacije o audio / video kodeku , kontejneru) kratko i jasno.

Na W10 koristim Media Info lite program , bez ikakvih kodek paketa jer i nisu potrebni.

Player je MPC HC i nema muke , sve cita :) za Streaming ide VLC.
 

Atomic™

Zaslužan član
Poruka
132.356
To sam ja testirao ovu novu platformu na koju je forum prešao.
Interesuje me koju svu dobrobit mogu izvući iz tih informacija.

Na primer, saznao sam da kada tražim prevod za film potrebno je da frame rate prevoda bude isti kao za film i onda će biti 100% usklađen.
Eto jedna od dobrobiti a da ne pričam o kodeku.

Instersuju me iskustva ljudi pa možda još nešto za šta ne znam naučim.
 

Commie

Buduća legenda
Poruka
41.783
Pa ako gledas za prevode onda je tu najbitnije fps (broj slika u sekundi) tu prevod mora da se slaze.

A opet ponavljam tu je MPC HC best off jer ima i pretragu titlova za filmove.

Evo ti primer za Gemini Man 2019 , kliknes D na tastaturi , oznaci titl koji radi i skines sa ctrl + s (automatski snimi u folder gde se nalazi film) .

Annotation 2019-12-12 122652.jpg


Media info je itekako koristan , nema boljeg programa od njega.

Npr eto opet pominjem MPC HC plejer ima integrisan Media Info.

Annotation 2019-12-12 123038.jpg


Ako si fillmofil , konvertujes filmove cesto kako bi smanjio fajlove radi prostora na disku , obavezno je da imas ovaj program , kao i dobar konvertor , editor itd
Naravno treba da znas sta radis jer treba da uskladis kvalitet sa velicinom fajla , da sto bolje izgleda iako manje zauzima ... ako je moguce naravno.
 

fosilvaso

Buduća legenda
Moderator
Poruka
25.254
Atomic malo ti konfuzna tema ...
Postavio si anketu koji win koristimo a u postu si napisao cemu sluzi Media info? :lol:

Inace media info mozes instalirati i bez k lite paketa :aha2:

Media info (informacije o audio / video kodeku , kontejneru) kratko i jasno.

Na W10 koristim Media Info lite program , bez ikakvih kodek paketa jer i nisu potrebni.

Player je MPC HC i nema muke , sve cita :) za Streaming ide VLC.
I onda još pod opcije naveo i LINUX!?:zcepanje::zcepanje::zcepanje:
 

fosilvaso

Buduća legenda
Moderator
Poruka
25.254
Pa ako gledas za prevode onda je tu najbitnije fps (broj slika u sekundi) tu prevod mora da se slaze.

A opet ponavljam tu je MPC HC best off jer ima i pretragu titlova za filmove.

Evo ti primer za Gemini Man 2019 , kliknes D na tastaturi , oznaci titl koji radi i skines sa ctrl + s (automatski snimi u folder gde se nalazi film) .

Pogledajte prilog 623136

Media info je itekako koristan , nema boljeg programa od njega.

Npr eto opet pominjem MPC HC plejer ima integrisan Media Info.

Pogledajte prilog 623137

Ako si fillmofil , konvertujes filmove cesto kako bi smanjio fajlove radi prostora na disku , obavezno je da imas ovaj program , kao i dobar konvertor , editor itd
Naravno treba da znas sta radis jer treba da uskladis kvalitet sa velicinom fajla , da sto bolje izgleda iako manje zauzima ... ako je moguce naravno.
A ako radiš razna rezanja i spajanja video-materijala, konverzija će ići mnogo brže ako za rezultat postaviš ISTE audio-video parametre kao što su bili izvorni!
 
Top
  Blokirali ste reklame
Dragi prijatelju, nemojte da blokirate reklame - isključite Ad Blocker na Forumu, jer će tako mesto vaših susreta na Krstarici ostati besplatno za korišćenje.